Pink Floyd – Pulse (2022) 2xBlu-ray 1080p AVC DTS-HD MA 5.1

Title: Pink Floyd – Pulse
Release Date: 2022
Genre: Psychedelic Rock, Prog Rock, Classic Rock

Production/Label: Pink Floyd Records
Duration: 02:23:51+02:28:17
Quality: Blu-ray
Container: BDMV
Video codec: MPEG-4 AVC
Audio codec: DTS, PCM
BD1
Video: MPEG-4 AVC Video / 20001 kbps / 1080p / 23,976 fps / 16:9 / High Profile 4.1
Audio#1: LPCM Audio / English / 2.0 / 48 kHz / 2304 kbps / 24-bit
Audio#2: DTS-HD Master Audio / English / 5.1 / 96 kHz / 8476 kbps / 24-bit (DTS Core: 5.1 / 48 kHz / 1509 kbps / 24-bit)
BD2
Video: MPEG-4 AVC Video / 26906 kbps / 1080p / 23,976 fps / 16:9 / High Profile 4.1
Audio#1: LPCM Audio / English / 2.0 / 48 kHz / 2304 kbps / 24-bit
Audio#2: LPCM Audio / English / 2.0 / 96 kHz / 4608 kbps / 24-bit
Size: 32.87 + 29.5 GB

Filmed live on 20 October 1994 at Earls Court, London, UK. Includes the first filmed performance of The Dark Side Of The Moon.. Restored & Re-edited from the original tape master in 2019 in Stereo PCM (48/24), 5.1 dts MASTER AUDIO (96/24)

Tracklist

BD1

Pulse One
01. Shine On You Crazy Diamond (Parts I-V, VII)
02. Learning to Fly
03. High Hopes
04. Take It Back
05. Coming Back to Life
06. Sorrow
07. Keep Talking
08. Another Brick in the Wall (Part 2)
09. One of These Days

The Dark Side Of The Moon
10. Speak to Me
11. Breathe (in the Air)
12. On the Run
13. Time
14. The Great Gig in the Sky
15. Money
16. Us and Them
17. Any Colour You Like
18. Brain Damage
19. Eclipse

Encores
20. Wish You Were Here
21. Comfortably Numb
22. Run Like Hell

BD2
Music Videos (48/24)
1 Take It Back – 1994
2 High Hopes – 1994
3 Marooned – 1994

Pulse Tour Rehearsal 1994 (96/24)
4 A Great Day For Freedom – Version 1
5 A Great Day For Freedom – Version 2
6 Lost For Words

Concert Screen Films 1994 (96/24)
7 Shine On You Crazy Diamond – Parts 1-4, 7
8 Speak To Me
9 Time
10 The Great Gig In The Sky
11 Money
12 Us And Them (Black & White)
13 Us And Them (Colour)
14 Brain Damage + Eclipse – North American Dates
15 Brain Damage + Eclipse – European Dates
16 Brain Damage – Earls Court, London Dates

Documentaries & Additional Material (48/24)
17 The Division Bell + Album Cover Photography (Ely, Cambridgeshire, UK) 1994
18 Pulse TV AD – 1995
19 The Division Bell Airship – 1994
20 Behind The Scene – Interviews with the Lead Technicians for the Division Bell Tour

Rock & Roll Hall Of Fame Induction – 1996 (48/24)
21 Wish You Were Here (Rock & Roll Hall Of Fame Induction 1996)

Interviewee – Billy Corgan
Audio-Only Live Recordings (96/24)
22 One Of These Days – Live In Hanover 1994
23 Astronomy Domine – Live In Miami 1994

BD1
pic pic pic pic picpic pic pic pic picpic pic pic pic picpic pic pic pic pic

BD2

pic pic pic pic picpicpic pic pic pic picpic
pic pic pic pic

DISC INFO:

Disc Title:     PULSE_2021_D1-BDFull
Disc Size:      35 300 355 845 bytes
Protection:     AACS
BD-Java:        No
BDInfo:         0.5.8

PLAYLIST REPORT:

Name:                   00000.MPLS
Length:                 2:23:52.206 (h:m:s.ms)
Size:                   35 052 244 992 bytes
Total Bitrate:          32,49 Mbps

VIDEO:

Codec                   Bitrate             Description
-----                   -------             -----------
MPEG-4 AVC Video        20001 kbps          1080p / 23,976 fps / 16:9 / High Profile 4.1

AUDIO:

Codec                           Language        Bitrate         Description
-----                           --------        -------         -----------
LPCM Audio                      English         2304 kbps       2.0 / 48 kHz / 2304 kbps / 24-bit
DTS-HD Master Audio             English         8476 kbps       5.1 / 96 kHz / 8476 kbps / 24-bit (DTS Core: 5.1 / 48 kHz / 1509 kbps / 24-bit)

FILES:

Name            Time In         Length          Size            Total Bitrate
----            -------         ------          ----            -------------
00000.M2TS      0:00:00.000     2:23:51.706     35 052 232 704  32 487
00005.M2TS      2:23:51.706     0:00:00.500     12 288          196
DISC INFO:

Disc Title:     PULSE_2021_D2-BDFull
Disc Size:      31 679 376 914 bytes
Protection:     AACS
BD-Java:        No
BDInfo:         0.5.8

PLAYLIST REPORT:

Name:                   00003.MPLS
Length:                 0:53:37.964 (h:m:s.ms)
Size:                   12 530 903 040 bytes
Total Bitrate:          31,15 Mbps

VIDEO:

Codec                   Bitrate             Description
-----                   -------             -----------
MPEG-4 AVC Video        26906 kbps          1080p / 23,976 fps / 16:9 / High Profile 4.1

AUDIO:

Codec                           Language        Bitrate         Description
-----                           --------        -------         -----------
LPCM Audio                      English         2304 kbps       2.0 / 48 kHz / 2304 kbps / 24-bit

SUBTITLES:

Codec                           Language        Bitrate         Description
-----                           --------        -------         -----------
Presentation Graphics           English         53,184 kbps
Presentation Graphics           French          52,005 kbps
Presentation Graphics           German          50,374 kbps
Presentation Graphics           Italian         47,620 kbps
Presentation Graphics           Spanish         47,059 kbps
Presentation Graphics           Dutch           48,335 kbps
Presentation Graphics           Portuguese      47,911 kbps
Presentation Graphics           Polish          48,265 kbps
Presentation Graphics           Chinese         35,933 kbps
Presentation Graphics           Chinese         35,560 kbps
Presentation Graphics           Japanese        33,128 kbps

FILES:

Name            Time In         Length          Size            Total Bitrate
----            -------         ------          ----            -------------
00016.M2TS      0:00:00.000     0:06:10.661     1 287 426 048   27 787
00017.M2TS      0:06:10.661     0:01:02.020     245 968 896     31 728
00018.M2TS      0:07:12.682     0:05:55.563     1 420 572 672   31 962
00019.M2TS      0:13:08.245     0:30:00.006     7 297 136 640   32 432
00020.M2TS      0:43:08.252     0:10:29.211     2 279 786 496   28 986
00021.M2TS      0:53:37.464     0:00:00.500     12 288          196

Download (ddownload.com, nitroflare.com)

BD1

https://filecrypt.co/Container/BE246E3A32.html  

BD2

https://filecrypt.co/Container/405B93F017.html