Rush: Time Machine – Live In Cleveland (2011) Blu-ray 1080p AVC DTS-HD MA 5.1 + BDRip 720p

Title: Rush: Time Machine – Live In Cleveland
Release Date: 2011
Genre: Progressive Rock

Production/Label: Zoe Records
Duration: 02:42:54
Quality: Blu-ray
Container: BDMV
Video codec: AVC
Audio codec: DTS
Video: MPEG-4 AVC 23993 kbps 1920x1080p / 23,976 fps / 16:9 / High Profile 4.1
Audio #1: English DTS-HD MA 5.1 / 48 kHz / 3112 kbps / 16-bit (DTS Core: 5.1 / 48 kHz / 1509 kbps / 16-bit)
Audio #2: English Dolby Digital 2.0 / 48 kHz / 192 kbps / DN -4dB
Size: 35.18 GB

• Time Machine ” 2011: Live In Cleveland” is an evening with Rush performing their classic hits and features the legendary “Moving Pictures” album, performed live in its entirety. Released in 1981, “Moving Pictures” is their most successful album, certified 4x Platinum, and features some of the band’s most well known songs and perennial radio favorites, including “Tom Sawyer,” “Limelight” and the Grammy-nominated instrumental “YYZ.” Captured in April 2011 in Cleveland during the renowned trio’s extensive world tour, “Time Machine 2011: Live In Cleveland” marks the band’s first live concert filmed in the United States. The choice to record in Cleveland was a deliberate nod of gratitude to the first city to support Rush on its airwaves, as former WMMS DJ Donna Halper is widely credited for helping break the band in 1974 by spinning “Working Man.” The reinterpreted live version of “Working Man” was the encore closer on the Time Machine tour.
• In addition to the 26-song concert set, Rush’s notorious concept tour videos are included: The first short film, entitled “The `Real’ History of Rush Episode No. 2 `Don’t Be Rash,'” and the opening second set video, “The `Real’ History of Rush Episode No. 17’…and Rock and Roll is My Name.'” The bonus material features outtakes from the short films, an alternate film version video for “Tom Sawyer,”and two rare pieces of Rush live footage from the vault: “Need Some Love” from Laura Second Secondary School with original drummer John Rutsey (1974) and “Anthem” from Passaic New Jersey (1976).

Tracklist
01. The Spirit of Radio
02. Time Stand Still
03. Presto
04. Stick It Out
05. Workin’ Them Angels
06. Leave That Thing Alone
07. Faithless
08. BU2B
09. Freewill
10. Marathon
11. Subdivisions
12. Tom Sawyer
13. Red Barchetta
14. YYZ
15. Limelight
16. The Camera Eye
17. Witch Hunt
18. Vital Signs
19. Caravan
20. Moto Perpetuo (Drum solo)
21. O’Malley’s Break (acoustic solo)
22. Closer to the Heart
23. 2112 (Overture/The Temples of Syrinx)
24. Far Cry
25. La Villa Strangiato
26. Working Man

bonus:
Outtakes from “History of Rush, Episode 2&17”
Tom Sawyer featuring the cast of “History of Rush, Episode 17”
Live from Laura Second Secondary School – Need Some Love (1974)
Live from Passaic, New Jersey – Anthem (1976)

picpicpicpic

picpicpicpicpicpicpicpicpicpicpicpicpicpicpicpicpicpicpicpic

DISC INFO:

Disc Title:     Rush.Time Machine - Live In Cleveland.2011.BD1080p
Disc Size:      37 769 204 600 bytes
Protection:     AACS
BD-Java:        No
BDInfo:         0.5.6

PLAYLIST REPORT:

Name:                   00001.MPLS
Length:                 2:42:54 (h:m:s)
Size:                   35 231 922 624 bytes
Total Bitrate:          28,84 Mbps

VIDEO:

Codec                   Bitrate             Description
-----                   -------             -----------
MPEG-4 AVC Video        23993 kbps          1080p / 23,976 fps / 16:9 / High Profile 4.1

AUDIO:

Codec                           Language        Bitrate         Description
-----                           --------        -------         -----------
DTS-HD Master Audio             English         3112 kbps       5.1 / 48 kHz / 3112 kbps / 16-bit (DTS Core: 5.1 / 48 kHz / 1509 kbps / 16-bit)
Dolby Digital Audio             English         192 kbps        2.0 / 48 kHz / 192 kbps / DN -4dB

FILES:

Name            Time In         Length          Size            Total Bitrate
----            -------         ------          ----            -------------
00002.M2TS      0:00:00.000     1:06:51.632     14 478 741 504  28 874
00003.M2TS      1:06:51.632     1:36:01.922     20 753 160 192  28 814
00011.M2TS      2:42:53.555     0:00:01.042     20 928          154

Download (ddownload.com, nitroflare.com)

Blu-ray Disc

https://filecrypt.co/Container/1C3DBC9D81.html  

BDRip 720p

https://filecrypt.co/Container/CDE31D7DAE.html