The Australian Pink Floyd Show – Eclipsed by the Moon – Live in Germany (2013) 2xBlu-ray 1080i AVC AC3 5.1 + BDRip 1080p

Title: The Australian Pink Floyd Show – Eclipsed by the Moon – Live in Germany
Release Date: 2013
Genre: Rock, Progressive Rock, tribute show

Production/Label: Edel records
Duration: 00:44:18 + 00:39:28 + 01:46:57
Quality: Blu-ray
Container: BDMV
Video codec: MPEG4
Audio codec: AC3
Size: 14.86 + 22.93 GB

Disc 1
Video: MPEG-4 AVC Video / 30005 kbps / 1080i / 29,970 fps / 16:9 / High Profile 4.1
Audio 1: German Dolby Digital Audio / 2.0 / 48 kHz / 192 kbps
Audio 2: German Dolby Digital Audio / 5.1 / 48 kHz / 448 kbps

Bonus

Video: MPEG-4 AVC Video / 14997 kbps / 1080i / 29,970 fps / 16:9 / High Profile 4.1
Audio 1: English / Dolby Digital Audio / 2.0 / 48 kHz / 128 kbps
Audio 2: English / Dolby Digital Audio / 2.0 / 48 kHz / 128 kbps

Disc 2

Video: MPEG-4 AVC Video / 27998 kbps / 1080i / 29,970 fps / 16:9 / High Profile 4.1
Audio 1: German Dolby Digital Audio / 2.0 / 48 kHz / 192 kbps
Audio 2: English Dolby Digital Audio / 5.1 / 48 kHz / 448 kbps

“The Australian Pink Floyd Show: Eclipsed By The Moon,” was filmed at Trier & Oberhausen Arenas in Germany on April 12th and 13th in 2013. The set includes songs from across the works of Pink Floyd. All the inflatables, all the lasers, all the hits. Australian Pink Floyd, the worldwide-touring tribute band, recreates the musical and visual concert experience of one of rock music’s most iconic groups. This one-hour concert features everything a true “AFP” fan expects: an astonishing note-for-note rendering of Pink Floyd’s music, evocative atmosphere, lasers and even Skippy the Kangaroo (the band’s mascot). Featuring founding members Steve Mac and Jason Sawford, the band has been performing the Pink Floyd catalogue for more than 20 years and has played to more than three million fans worldwide. Lovingly curated, the band’s live sets are packed with the fans’ favorite Floyd classics from across the years that otherwise would simply not be heard together in a concert setting.

Tracklist

• Disc 1

01. Speak to me
02. Breathe
03. On the run
04. Time / Breathe (Reprise)
05. The great gig in the sky
06. Money
07. Us and them
08. Any colour you like
09. Brain damage
10. Eclipse

Bonus

APF TV
Steve Cam, Jason Cam, Colin, Bonney Cam, Dave Cam, Mike Cam, Alex Cam, Girls Cam

• Disc 2

01. In The Flesh?
02. Echoes
03. What Do You Want From Me
04. Sorrow
05. Shine On You Crazy Diamond
06. Coming Back To Life
07. The Happiest Days Of Our Lives
08. Another Brick In The Wall (part 2)
09. Wish You Were Here
10. One Of These Days
11. Comfortably Numb
12. Run Like Hell

pic pic pic pic

pic pic pic pic

DISC INFO:

Disc Title:     Disc 1
Disc Size:      15 960 967 786 bytes
Protection:     AACS
BD-Java:        No
Extras:         50Hz Content
BDInfo:         0.5.8

PLAYLIST REPORT:

Name:                   01001.MPLS
Length:                 0:44:19.696 (h:m:s.ms)
Size:                   10 676 305 920 bytes
Total Bitrate:          32,11 Mbps

VIDEO:

Codec                   Bitrate             Description
-----                   -------             -----------
MPEG-4 AVC Video        29993 kbps          1080i / 29,970 fps / 16:9 / Main Profile 4.1

AUDIO:

Codec                           Language        Bitrate         Description
-----                           --------        -------         -----------
Dolby Digital Audio             German          192 kbps        2.0 / 48 kHz / 192 kbps
Dolby Digital Audio             German          448 kbps        5.1 / 48 kHz / 448 kbps

FILES:

Name            Time In         Length          Size            Total Bitrate
----            -------         ------          ----            -------------
00002.M2TS      0:00:00.000     0:44:18.656     10 676 023 296  32 125
00003.M2TS      0:44:18.656     0:00:01.040     282 624         2 174
DISC INFO:

Disc Title:     Disc 2
Disc Size:      24 629 257 217 bytes
Protection:     AACS
BD-Java:        No
Extras:         50Hz Content
BDInfo:         0.5.8

PLAYLIST REPORT:

Name:                   00002.MPLS
Length:                 1:46:57.511 (h:m:s.ms)
Size:                   24 090 322 944 bytes
Total Bitrate:          30,03 Mbps

VIDEO:

Codec                   Bitrate             Description
-----                   -------             -----------
MPEG-4 AVC Video        27998 kbps          1080i / 29,970 fps / 16:9 / Main Profile 4.1

AUDIO:

Codec                           Language        Bitrate         Description
-----                           --------        -------         -----------
Dolby Digital Audio             German          192 kbps        2.0 / 48 kHz / 192 kbps
Dolby Digital Audio             English         448 kbps        5.1 / 48 kHz / 448 kbps

FILES:

Name            Time In         Length          Size            Total Bitrate
----            -------         ------          ----            -------------
00002.M2TS      0:00:00.000     1:46:57.511     24 090 322 944  30 031

Download (ddownload.com, nitroflare.com)

2xBlu-ray Disc

https://filecrypt.co/Container/47D6991CE6.html  

BDRip 1080p

https://filecrypt.co/Container/69FA44639F.html