The Rolling Stones – A Bigger Bang: Live On Copacabana Beach 2006 (2021) 2xBlu-ray 1080i AVC DTS-HD MA 5.1

Title: The Rolling Stones – A Bigger Bang: Live On Copacabana Beach 2006
Release Date: 2021
Genre: Classic Rock
Production/Label: Mercury Studios

The Rolling Stones’ February 2006 gig in Rio de Janeiro is the focus of the band’s next live album/concert film A Bigger Bang: Live on Copacabana Beach.

BD1 – Live On Copacabana Beach 2006

Duration: 03:49:33
Quality: SD Blu-ray
Video resolution: 1080i
Container: BDMV
Video codec: H.264
Audio codec: DTS, PCM
Video: MPEG-4 AVC Video / 35983 kbps / 1080i / 29.970 fps / 16:9 / High Profile 4.1
Audio#1: English / LPCM Audio / 2.0 / 48 kHz / 2304 kbps / 24-bit
Audio#2: English / DTS-HD Master Audio / 5.1 / 48 kHz / 4804 kbps / 24-bit (DTS Core: 5.1 / 48 kHz / 1509 kbps / 24-bit)

Tracklist

01. Intro
02. Jumpin’ Jack Flash
03. It’s Only Rock ‘n’ Roll (But I Like It)
04. You Got Me Rocking
05. Tumbling Dice
06. Oh No, Not You Again
07. Wild Horses
08. Rain Fall Down
09. Midnight Rambler
10. Night Time Is the Right Time
11. This Place Is Empty
12. Happy
13. Miss You
14. Rough Justice
15. Get Off My Cloud
16. Honky Tonk Women
17. Sympathy For The Devil
18. Start Me Up
19. Brown Sugar
20. You Can’t Always Get What You Want
21. (I Can’t Get No) Satisfaction

pic pic pic picpic pic pic pic

DISC INFO:

Disc Title:     Rolling Stones - A Bigger Bang Live On Copacabana Beach
Disc Label:     The Rolling Stones A Bigger Bang Live On Copacabana Beach 2006
Disc Size:      40,431,236,331 bytes
Protection:     AACS
BDInfo:         0.7.5.5

PLAYLIST REPORT:

Name:                   00000.MPLS
Length:                 1:56:39.826 (h:m:s.ms)
Size:                   39,653,406,720 bytes
Total Bitrate:          45.32 Mbps

VIDEO:

Codec                   Bitrate             Description
-----                   -------             -----------
MPEG-4 AVC Video        35983 kbps          1080i / 29.970 fps / 16:9 / High Profile 4.1

AUDIO:

Codec                           Language        Bitrate         Description
-----                           --------        -------         -----------
LPCM Audio                      English         2304 kbps       2.0 / 48 kHz /  2304 kbps / 24-bit
DTS-HD Master Audio             English         4804 kbps       5.1 / 48 kHz /  4804 kbps / 24-bit (DTS Core: 5.1 / 48 kHz /  1509 kbps / 24-bit)

FILES:

Name            Time In         Length          Size            Total Bitrate
----            -------         ------          ----            -------------
00001.M2TS      0:00:00.000     0:00:01.001     1,081,344       8,642
00000.M2TS      0:00:01.001     1:56:37.824     39,651,747,840  45,330
00011.M2TS      1:56:38.825     0:00:01.000     577,536         4,616

BD2 – Delta Center, Salt Lake City, UT, 2005

Duration: 01:52:54
Quality: SD Blu-ray
Video resolution: 1080i
Container: BDMV
Video codec: H.264
Audio codec: DTS, PCM
Video: MPEG-4 AVC Video / 35984 kbps / 1080i / 29.970 fps / 16:9 / High Profile 4.1
Audio#1: LPCM Audio / 2.0 / 48 kHz / 2304 kbps / 24-bit
Audio#2: DTS-HD Master Audio / 5.1 / 48 kHz / 4967 kbps / 24-bit (DTS Core: 5.1 / 48 kHz / 1509 kbps / 24-bit)

Tracklist

01. Intro
02. Start Me Up
03. You Got Me Rocking
04. She’s So Cold
05. Tumbling Dice
06. Rain Fall Down
07. It’s Only Rock ‘n’ Roll (but I Like It)
08. Wild Horses
09. All Down the Line
10. Night Time Is the Right Time
11. Slipping Away
12. Infamy
13. Miss You
14. Rough Justice
15. Get Off of My Cloud
16. Honky Tonk Women
17. Sympathy for the Devil
18. Brown Sugar
19. Jumpin’ Jack Flash
20. You Can’t Always Get What You Want
21. (I Can’t Get No) Satisfaction

pic pic pic picpic pic pic pic

DISC INFO:

Disc Title:     Rolling Stones - A Bigger Bang Live In Salt Lake City
Disc Label:     The Rolling Stones A Bigger Bang Live  Salt Lake City 2005
Disc Size:      39,420,958,483 bytes
Protection:     AACS
BDInfo:         0.7.5.5

PLAYLIST REPORT:

Name:                   00000.MPLS
Length:                 1:52:54.300 (h:m:s.ms)
Size:                   38,531,733,504 bytes
Total Bitrate:          45.50 Mbps

VIDEO:

Codec                   Bitrate             Description
-----                   -------             -----------
MPEG-4 AVC Video        35984 kbps          1080i / 29.970 fps / 16:9 / High Profile 4.1

AUDIO:

Codec                           Language        Bitrate         Description
-----                           --------        -------         -----------
LPCM Audio                      English         2304 kbps       2.0 / 48 kHz /  2304 kbps / 24-bit
DTS-HD Master Audio             English         4967 kbps       5.1 / 48 kHz /  4967 kbps / 24-bit (DTS Core: 5.1 / 48 kHz /  1509 kbps / 24-bit)

FILES:

Name            Time In         Length          Size            Total Bitrate
----            -------         ------          ----            -------------
00001.M2TS      0:00:00.000     0:00:01.001     1,081,344       8,642
00000.M2TS      0:00:01.001     1:52:52.298     38,530,074,624  45,515
00011.M2TS      1:52:53.299     0:00:01.000     577,536         4,616

Download (ddownload.com, nitroflare.com):

The Rolling Stones A Bigger Bang Live Salt Lake City 2005

https://filecrypt.co/Container/8FB1CCD6E1.html  

The Rolling Stones A Bigger Bang Live On Copacabana Beach 2006

https://filecrypt.co/Container/B7D82A0754.html